zen-cart-1.39h在线客服livezilla安装视频教程-仿兰亭外贸英文商城整站模板源码lightinthebox

时间: 2011-08-25 / 分类: zen cart技巧 / 浏览次数: 73 views / 0个评论 发表评论

   Livezilla免费在线客服说明

Livezilla 是一款开源免费的德国开发的在线客服软件,其强大的功能甚至让一些收费的在线客服软件相形见绌

为此本店录制了将livezilla与仿兰亭整站系统整合的视频教程:

目前的一些与客户及时沟通的工具的缺点:

QQ,yahoo,msn,gtalk等需要客户也安装聊天工具,而放置过多的qq,yahoo,msn,gtalk,ICQ,Skypa会占据太多的页面位置,影响页面美观功能不够全面,无法追踪访客信息 

livezilla在线客服的优点:

完全免费,德国出品,品质可靠

安装简单容易,与网页,以及其他程序极容易整合

实时用户信息追踪,可以跟踪用户的IP,国家,地区,城市,浏览器,

视频聊天

离线留言

多用户,多语言,根据用户浏览器语言自动选择语言

可定制界面 

Livezilla程序请到到官方网站下载

官方网址::http://www.livezilla.net/

 

http://115.com/file/clti56gu#
LiveZilla_3.3.2.2_Full.rar

视频信息:

  zen-cart-1.39h仿兰亭整站模lightinthebox在线客服安装视频教程.mp4
      Format : MPEG-4
      Format profile : Base Media / Version 2
      Codec ID : mp42
      File size : 64.7 MiB
      Duration : 25mn 12s
      Overall bit rate : 359 Kbps
      Encoded date : UTC 2011-08-23 18:20:59
      Tagged date : UTC 2011-08-23 18:20:59
   Video #1
      ID : 1
      Format : AVC
      Format/Info : Advanced Video Codec
      Format profile : High@L4.0
      Format settings, CABAC : Yes
      Format settings, ReFrames : 4 frames
      Codec ID : avc1
      Codec ID/Info : Advanced Video Coding
      Duration : 25mn 12s
      Bit rate mode : Variable
      Bit rate : 302 Kbps
      Width : 1 440 pixels
      Height : 900 pixels
      Display aspect ratio : 1.600
      Frame rate mode : Constant
      Frame rate : 15.000 fps
      Resolution : 24 bits
      Colorimetry : 4:2:0
      Scan type : Progressive
      Bits/(Pixel*Frame) : 0.016
      Stream size : 54.5 MiB (84%)
      Language : English
      Encoded date : UTC 2011-08-23 18:20:59
      Tagged date : UTC 2011-08-23 18:20:59
      colour_primaries : BT.709-5, BT.1361, IEC 61966-2-4, SMPTE RP177
      transfer_characteristics : BT.709-5, BT.1361
      matrix_coefficients : BT.709-5, BT.1361, IEC 61966-2-4 709, SMPTE RP177
   Audio #2
      ID : 2
      Format : AAC
      Format/Info : Advanced Audio Codec
      Format version : Version 4
      Format profile : LC
      Format settings, SBR : Yes
      Format settings, PS : No
      Codec ID : 40
      Duration : 25mn 11s
      Bit rate mode : Constant
      Bit rate : 54.6 Kbps
      Channel(s) : 2 channels
      Channel positions : L R
      Sampling rate : 44.1 KHz
      Resolution : 16 bits
      Stream size : 9.85 MiB (15%)
      Language : English
      Encoded date : UTC 2011-08-23 18:20:59
      Tagged date : UTC 2011-08-23 18:20:59

发表评论

您的昵称 *

您的邮箱 * (绝对保密)

您的网站

icon_wink.gif icon_neutral.gif icon_mad.gif icon_twisted.gif icon_smile.gif icon_eek.gif icon_sad.gif icon_rolleyes.gif icon_razz.gif icon_redface.gif icon_surprised.gif icon_mrgreen.gif icon_lol.gif icon_idea.gif icon_biggrin.gif icon_evil.gif icon_cry.gif icon_cool.gif icon_arrow.gif icon_confused.gif icon_question.gif icon_exclaim.gif